Heures au format UTC + 1 heure



Poster un nouveau sujet Répondre au sujet  [ 1 message ] 
Auteur Message
Hors ligne

Inscription: Mar 2016
Messages: 139
Sexe: Non specifié
Posté: 28 Avr 2016, 20:07 

Namae No Nai Onna Tachi 2010 JAP DVDRip X264 AC3-ADiOS > http://bit.ly/1rlv7rR

































































Namae No Nai Onna Tachi 2010 JAP DVDRip x264 AC3-ADiOS . 2000 characters maximum.2000 . Bookmark . infohash: 7fc84a5875a16d1c909b57563515a363a058d263Trackers hour 0 1You can get a Torrent compatible list here. 1.39 GB 7FC84A5875A16D1C909B57563515A363A058D263 01 0/100/100/10 bbcode. Description Namae.No.Nai.Onna.Tachi.2010.JAP.DVDRip.x264.AC3-ADiOS.mkv General Unique ID : 249089086628595681039455082215297735498 (0xBB64D025BC73F357B13B0B0AA5475B4A) Complete name : Namae.No.Nai.Onna.Tachi.2010.JAP.DVDRip.x264.AC3-ADiOS.mkv Format : Matroska Format version : Version 2 File size : 1.39 GiB Duration : 1h 45mn Overall bit rate : 1 887 Kbps Encoded date : UTC 2012-09-17 22:08:54 Writing application : mkvmerge v4.9.1 ('Ich will') built on Jul 11 2011 23:53:15 Video #1 ID : 1 Format : AVC Format/Info : Advanced Video Codec Format profile : BaselineL3.0 Format settings, CABAC : No Format settings, ReFrames : 1 frame Muxing mode : Header stripping Codec ID : VMPEG4/ISO/AVC Duration : 1h 45mn Bit rate : 1 720 Kbps Width : 720 pixels Height : 400 pixels Display aspect ratio : 16:9 Frame rate mode : Constant Frame rate : 23.976 fps Color space : YUV Chroma subsampling : 4:2:0 Bit depth : 8 bits Scan type : Progressive Bits/(Pixel*Frame) : 0.249 Stream size : 1.22 GiB (88%) Writing library : x264 core 125 Encoding settings : cabac=0 / ref=1 / deblock=1:0:0 / analyse=0x1:0x1 / me=dia / subme=1 / psy=1 / psyrd=1.00:0.00 / mixedref=0 / merange=16 / chromame=1 / trellis=0 / 8x8dct=0 / cqm=0 / deadzone=21,11 / fastpskip=1 / chromaqpoffset=0 / threads=3 / lookaheadthreads=1 / slicedthreads=0 / nr=0 / decimate=1 / interlaced=0 / bluraycompat=0 / constrainedintra=0 / bframes=0 / weightp=0 / keyint=250 / keyintmin=23 / scenecut=40 / intrarefresh=0 / rc=abr / mbtree=0 / bitrate=1720 / ratetol=1.0 / qcomp=0.60 / qpmin=0 / qpmax=69 / qpstep=4 / ipratio=1.40 / aq=1:1.00 Default : Yes Forced : No Audio #2 ID : 2 Format : MPEG Audio Format version : Version 1 Format profile : Layer 2 Muxing mode : Header stripping Codec ID : AMPEG/L2 Codec ID/Hint : MP2 Duration : 1h 45mn Bit rate mode : Constant Bit rate : 192 Kbps Channel(s) : 2 channels Sampling rate : 48.0 KHz Compression mode : Lossy Delay relative to video : 13ms Stream size : 145 MiB (10%) Default : Yes Forced : No . Movie: Love & Loathing & Lulu & Ayano Detected quality: DVDRip IMDb link: 1693776 IMDb rating: 6.4 (55 votes) RottenTomatoes: 0% 100% Watch on Solarmovie: Love & Loathing & Lulu & Ayano Genre: Drama add Love & Loathing & Lulu & Ayano to bookmarks Release date: 04 September 2010 Language: Japanese Cast: Hirofumi Arai, RyNosuke Kawai, Natsumi Kamata, Tomori Abe and others Summary: Junko, a mousy office worker, has been dominated by her sexually active mom for years. 6f6ddb31bf


Haut
  Profil 
 

Qui est en ligne

Utilisateurs parcourant ce forum: Aucun utilisateur enregistré et 0 invités

Permissions de ce forum:

Vous ne pouvez pas poster de nouveaux sujets
Vous ne pouvez pas répondre aux sujets
Vous ne pouvez pas éditer vos messages
Vous ne pouvez pas supprimer vos messages
Poster un nouveau sujet Répondre au sujet  [ 1 message ] 


cron
Créer un forum | © phpBB | Entraide & support | Forum gratuit